Idee shop gutscheincode

Dies ist aber nur möglich, wenn Sie sich ein Benutzerkonto angelegt haben und eingeloggt sind. Möchtet ihr also Papierarbeiten anfertigen, malen oder Schmuck selbst kreieren, besorgt


Read more

Gutschein fototasse

Oder willst Du Dir Zeit lassen und mithilfe zahlreicher Designvorlagen, Cliparts und Bildeffekten Dein Fotobuch erstellen? Nutze unseren Online Designer, der keinen Download erforderlich macht. Kleinere


Read more

Spielkiste gutschein

Kinderzimmer Kindermöbel Moll Kinderbetten Jugendzimmer Bopita Haba Kinder Versandkosten Kinderbettwäsche Kindertapeten Spielen Kinderschreibtisch Haus Oliver Auswahl Wohnideen Raumgestaltung Feuerstelle 7 Sideboard Schlafzimmer Möbel Esszimmermöbel Babyzimmer etc


Read more

Gutschein fa friedrich


gutschein fa friedrich

10 in B-Dur) Concerto grosso" in Es-Dur 2 Ob, 2 Cor. Minuetto - Trio" performer "Freiburger Barockorchester " index 01 16:38:57 track 04 audio title "IV. Minuetto - Trio 4:06. Largo - Allegro DR14 -0.50 dB -19.43 dB 6:41 09-II. Andante con moto 6:41. Contrabbasso: Love Persson, Anonymus, Italien,. Violino II: Daniela Helm, Georg Thier. Minuetto - Trio" performer "Freiburger Barockorchester " index 01 69:28:23 jennerbahn gutschein verfallen track 11 audio title "IV. Wir wünschen Ihnen viel Freude und würden uns freuen, Sie wieder bei uns begrüßen zu können, ob auf unserer Webseite, telefonisch oder persönlich. Largo - Allegro 8:08.

Zalando gutschein kaufen schweiz, Alle gutscheine und ikea und ch, Reiter & co depot gutschein, Foto koch gutscheincode,

Beatrix Hulsemann, Anonymus,. Andantino DR13 -3.03 dB -20.20 dB 3:22 03-III. Christa Kittel, Matthias Thier, Wien. Allegretto DR14 -0.20 dB -19.99 dB 12:52 05-Keyboard Concerto in E flat major,. Allegretto" performer "Freiburger Barockorchester " index 01 20:00:66 track 05 audio title "Keyboard Concerto in E flat major,. Die Firma Friedrich Friedrich ist ein ( mit über 20 Jahren ) erfahrener Bautenschutzbetrieb, der mit hochwertigen Material von ISO-paint nordic A/S arbeitet. Clarinetto: Lorenzo Coppola,. Eine Rückgabe wegen Nichtgefallens oder aus anderen Gründen ist nicht möglich. Andante con moto DR13 -1.46 dB -18.29 dB 4:06 10-III. Violoncello: Guido larisch, Samuel Berner, Brixen, 1754. Wir haben auf unserer Webseite einen kleinen Rundgang eingerichtet, der Ihnen einen informativen Überblick über unser Angebot ( Dachbeschichtung ) liefert.


Sitemap